  0
SECTION
  2
HEADER
  9
$ACADVER
  1
AC1014
  9
$ACADMAINTVER
 70
     9
  9
$DWGCODEPAGE
  3
ANSI_1252
  9
$INSBASE
 10
0.0
 20
0.0
 30
0.0
  9
$EXTMIN
 10
3.158555790078075
 20
2.529916707327493
 30
0.0
  9
$EXTMAX
 10
7.443668962491805
 20
10.1570546656848
 30
0.0
  9
$LIMMIN
 10
0.0
 20
0.0
  9
$LIMMAX
 10
12.0
 20
9.0
  9
$ORTHOMODE
 70
     0
  9
$REGENMODE
 70
     1
  9
$FILLMODE
 70
     1
  9
$QTEXTMODE
 70
     0
  9
$MIRRTEXT
 70
     1
  9
$DRAGMODE
 70
     2
  9
$LTSCALE
 40
1.0
  9
$OSMODE
 70
     0
  9
$ATTMODE
 70
     1
  9
$TEXTSIZE
 40
0.2
  9
$TRACEWID
 40
0.05
  9
$TEXTSTYLE
  7
STANDARD
  9
$CLAYER
  8
0
  9
$CELTYPE
  6
BYLAYER
  9
$CECOLOR
 62
   256
  9
$CELTSCALE
 40
1.0
  9
$DELOBJ
 70
     1
  9
$DISPSILH
 70
     0
  9
$DIMSCALE
 40
1.0
  9
$DIMASZ
 40
0.18
  9
$DIMEXO
 40
0.0625
  9
$DIMDLI
 40
0.38
  9
$DIMRND
 40
0.0
  9
$DIMDLE
 40
0.0
  9
$DIMEXE
 40
0.18
  9
$DIMTP
 40
0.0
  9
$DIMTM
 40
0.0
  9
$DIMTXT
 40
0.18
  9
$DIMCEN
 40
0.09
  9
$DIMTSZ
 40
0.0
  9
$DIMTOL
 70
     0
  9
$DIMLIM
 70
     0
  9
$DIMTIH
 70
     1
  9
$DIMTOH
 70
     1
  9
$DIMSE1
 70
     0
  9
$DIMSE2
 70
     0
  9
$DIMTAD
 70
     0
  9
$DIMZIN
 70
     0
  9
$DIMBLK
  1

  9
$DIMASO
 70
     1
  9
$DIMSHO
 70
     1
  9
$DIMPOST
  1

  9
$DIMAPOST
  1

  9
$DIMALT
 70
     0
  9
$DIMALTD
 70
     2
  9
$DIMALTF
 40
25.4
  9
$DIMLFAC
 40
1.0
  9
$DIMTOFL
 70
     0
  9
$DIMTVP
 40
0.0
  9
$DIMTIX
 70
     0
  9
$DIMSOXD
 70
     0
  9
$DIMSAH
 70
     0
  9
$DIMBLK1
  1

  9
$DIMBLK2
  1

  9
$DIMSTYLE
  2
STANDARD
  9
$DIMCLRD
 70
     0
  9
$DIMCLRE
 70
     0
  9
$DIMCLRT
 70
     0
  9
$DIMTFAC
 40
1.0
  9
$DIMGAP
 40
0.09
  9
$DIMJUST
 70
     0
  9
$DIMSD1
 70
     0
  9
$DIMSD2
 70
     0
  9
$DIMTOLJ
 70
     1
  9
$DIMTZIN
 70
     0
  9
$DIMALTZ
 70
     0
  9
$DIMALTTZ
 70
     0
  9
$DIMFIT
 70
     3
  9
$DIMUPT
 70
     0
  9
$DIMUNIT
 70
     2
  9
$DIMDEC
 70
     2
  9
$DIMTDEC
 70
     2
  9
$DIMALTU
 70
     2
  9
$DIMALTTD
 70
     2
  9
$DIMTXSTY
  7
STANDARD
  9
$DIMAUNIT
 70
     0
  9
$LUNITS
 70
     2
  9
$LUPREC
 70
     4
  9
$SKETCHINC
 40
0.1
  9
$FILLETRAD
 40
0.5
  9
$AUNITS
 70
     0
  9
$AUPREC
 70
     0
  9
$MENU
  1
.
  9
$ELEVATION
 40
0.0
  9
$PELEVATION
 40
0.0
  9
$THICKNESS
 40
0.0
  9
$LIMCHECK
 70
     0
  9
$BLIPMODE
 70
     0
  9
$CHAMFERA
 40
0.5
  9
$CHAMFERB
 40
0.5
  9
$CHAMFERC
 40
1.0
  9
$CHAMFERD
 40
0.0
  9
$SKPOLY
 70
     0
  9
$TDCREATE
 40
2452178.449266088
  9
$TDUPDATE
 40
2452646.416061226
  9
$TDINDWG
 40
0.0009218750
  9
$TDUSRTIMER
 40
0.0009218750
  9
$USRTIMER
 70
     1
  9
$ANGBASE
 50
0.0
  9
$ANGDIR
 70
     0
  9
$PDMODE
 70
     0
  9
$PDSIZE
 40
0.0
  9
$PLINEWID
 40
0.0
  9
$COORDS
 70
     1
  9
$SPLFRAME
 70
     0
  9
$SPLINETYPE
 70
     6
  9
$SPLINESEGS
 70
     8
  9
$ATTDIA
 70
     1
  9
$ATTREQ
 70
     1
  9
$HANDLING
 70
-16383
  9
$HANDSEED
  5
11F
  9
$SURFTAB1
 70
     6
  9
$SURFTAB2
 70
     6
  9
$SURFTYPE
 70
     6
  9
$SURFU
 70
     6
  9
$SURFV
 70
     6
  9
$UCSNAME
  2

  9
$UCSORG
 10
0.0
 20
0.0
 30
0.0
  9
$UCSXDIR
 10
1.0
 20
0.0
 30
0.0
  9
$UCSYDIR
 10
0.0
 20
1.0
 30
0.0
  9
$PUCSNAME
  2

  9
$PUCSORG
 10
0.0
 20
0.0
 30
0.0
  9
$PUCSXDIR
 10
1.0
 20
0.0
 30
0.0
  9
$PUCSYDIR
 10
0.0
 20
1.0
 30
0.0
  9
$USERI1
 70
     0
  9
$USERI2
 70
     0
  9
$USERI3
 70
     0
  9
$USERI4
 70
     0
  9
$USERI5
 70
     0
  9
$USERR1
 40
0.0
  9
$USERR2
 40
0.0
  9
$USERR3
 40
0.0
  9
$USERR4
 40
0.0
  9
$USERR5
 40
0.0
  9
$WORLDVIEW
 70
     1
  9
$SHADEDGE
 70
     3
  9
$SHADEDIF
 70
    70
  9
$TILEMODE
 70
     1
  9
$MAXACTVP
 70
    64
  9
$PINSBASE
 10
0.0
 20
0.0
 30
0.0
  9
$PLIMCHECK
 70
     0
  9
$PEXTMIN
 10
1.000000000000000E+20
 20
1.000000000000000E+20
 30
1.000000000000000E+20
  9
$PEXTMAX
 10
-1.000000000000000E+20
 20
-1.000000000000000E+20
 30
-1.000000000000000E+20
  9
$PLIMMIN
 10
0.0
 20
0.0
  9
$PLIMMAX
 10
12.0
 20
9.0
  9
$UNITMODE
 70
     0
  9
$VISRETAIN
 70
     1
  9
$PLINEGEN
 70
     0
  9
$PSLTSCALE
 70
     1
  9
$TREEDEPTH
 70
  3020
  9
$PICKSTYLE
 70
     1
  9
$CMLSTYLE
  2
STANDARD
  9
$CMLJUST
 70
     0
  9
$CMLSCALE
 40
1.0
  9
$PROXYGRAPHICS
 70
     1
  9
$MEASUREMENT
 70
     0
  0
ENDSEC
  0
SECTION
  2
CLASSES
  0
CLASS
  1
ACDBDICTIONARYWDFLT
  2
AcDbDictionaryWithDefault
  3
AutoCAD 2000
 90
        0
280
     0
281
     0
  0
CLASS
  1
ACDBPLACEHOLDER
  2
AcDbPlaceHolder
  3
AutoCAD 2000
 90
        0
280
     0
281
     0
  0
CLASS
  1
LAYOUT
  2
AcDbLayout
  3
AutoCAD 2000
 90
        0
280
     0
281
     0
  0
CLASS
  1
LONG_TRANSACTION
  2
AcDbLongTransaction
  3
AutoCAD 2000
 90
        0
280
     0
281
     0
  0
CLASS
  1
LWPOLYLINE
  2
AcDbPolyline
  3
AutoCAD 2000
 90
        0
280
     0
281
     1
  0
CLASS
  1
HATCH
  2
AcDbHatch
  3
AutoCAD 2000
 90
        0
280
     0
281
     1
  0
CLASS
  1
XRECORD
  2
AcDbXrecord
  3
AutoCAD 2000
 90
        0
280
     0
281
     0
  0
ENDSEC
  0
SECTION
  2
TABLES
  0
TABLE
  2
VPORT
  5
8
330
0
100
AcDbSymbolTable
 70
     4
  0
VPORT
  5
F8
330
8
100
AcDbSymbolTableRecord
100
AcDbViewportTableRecord
  2
*ACTIVE
 70
     0
 10
0.0
 20
0.0
 11
1.0
 21
1.0
 12
5.412203838677817
 22
6.253676451061284
 13
0.0
 23
0.0
 14
0.5
 24
0.5
 15
0.5
 25
0.5
 16
0.0
 26
0.0
 36
1.0
 17
0.0
 27
0.0
 37
0.0
 40
8.99999999161816
 41
1.462515883100381
 42
50.0
 43
0.0
 44
0.0
 50
0.0
 51
0.0
 71
     0
 72
   100
 73
     1
 74
     3
 75
     0
 76
     0
 77
     0
 78
     0
  0
ENDTAB
  0
TABLE
  2
LTYPE
  5
5
330
0
100
AcDbSymbolTable
 70
     1
  0
LTYPE
  5
14
330
5
100
AcDbSymbolTableRecord
100
AcDbLinetypeTableRecord
  2
BYBLOCK
 70
     0
  3

 72
    65
 73
     0
 40
0.0
  0
LTYPE
  5
15
330
5
100
AcDbSymbolTableRecord
100
AcDbLinetypeTableRecord
  2
BYLAYER
 70
     0
  3

 72
    65
 73
     0
 40
0.0
  0
LTYPE
  5
16
330
5
100
AcDbSymbolTableRecord
100
AcDbLinetypeTableRecord
  2
CONTINUOUS
 70
     0
  3
Solid line
 72
    65
 73
     0
 40
0.0
  0
ENDTAB
  0
TABLE
  2
LAYER
  5
2
330
0
100
AcDbSymbolTable
 70
     4
  0
LAYER
  5
10
330
2
100
AcDbSymbolTableRecord
100
AcDbLayerTableRecord
  2
0
 70
     0
 62
     7
  6
CONTINUOUS
  0
LAYER
  5
34
330
2
100
AcDbSymbolTableRecord
100
AcDbLayerTableRecord
  2
L
 70
     0
 62
     7
  6
CONTINUOUS
  0
LAYER
  5
45
330
2
100
AcDbSymbolTableRecord
100
AcDbLayerTableRecord
  2
DEFPOINTS
 70
     0
 62
     7
  6
CONTINUOUS
  0
LAYER
  5
88
330
2
100
AcDbSymbolTableRecord
100
AcDbLayerTableRecord
  2
TX
 70
     0
 62
   150
  6
CONTINUOUS
  0
ENDTAB
  0
TABLE
  2
STYLE
  5
3
330
0
100
AcDbSymbolTable
 70
     3
  0
STYLE
  5
11
330
3
100
AcDbSymbolTableRecord
100
AcDbTextStyleTableRecord
  2
STANDARD
 70
     0
 40
0.0
 41
1.0
 50
0.0
 71
     0
 42
0.2
  3
txt
  4

  0
STYLE
  5
35
330
3
100
AcDbSymbolTableRecord
100
AcDbTextStyleTableRecord
  2
REG
 70
     0
 40
0.0
 41
1.0
 50
0.0
 71
     0
 42
0.09375
  3
E:\R13\com\fonts\ARCHITXT.SHX
  4

  0
STYLE
  5
36
330
3
100
AcDbSymbolTableRecord
100
AcDbTextStyleTableRecord
  2
DIMTXT
 70
     0
 40
0.0
 41
1.0
 50
0.0
 71
     0
 42
1.125
  3
archt.shx
  4

  0
ENDTAB
  0
TABLE
  2
VIEW
  5
6
330
0
100
AcDbSymbolTable
 70
     0
  0
ENDTAB
  0
TABLE
  2
UCS
  5
7
330
0
100
AcDbSymbolTable
 70
     0
  0
ENDTAB
  0
TABLE
  2
APPID
  5
9
330
0
100
AcDbSymbolTable
 70
     1
  0
APPID
  5
12
330
9
100
AcDbSymbolTableRecord
100
AcDbRegAppTableRecord
  2
ACAD
 70
     0
  0
ENDTAB
  0
TABLE
  2
DIMSTYLE
  5
A
330
0
100
AcDbSymbolTable
 70
     6
  0
DIMSTYLE
105
27
102
{ACAD_REACTORS
330
C1
330
CF
102
}
330
A
100
AcDbSymbolTableRecord
100
AcDbDimStyleTableRecord
  2
STANDARD
 70
     0
  3

  4

  5

  6

  7

 40
1.0
 41
0.18
 42
0.0625
 43
0.38
 44
0.18
 45
0.0
 46
0.0
 47
0.0
 48
0.0
140
0.18
141
0.09
142
0.0
143
25.4
144
1.0
145
0.0
146
1.0
147
0.09
 71
     0
 72
     0
 73
     1
 74
     1
 75
     0
 76
     0
 77
     0
 78
     0
170
     0
171
     2
172
     0
173
     0
174
     0
175
     0
176
     0
177
     0
178
     0
270
     2
271
     2
272
     2
273
     2
274
     2
340
11
275
     0
280
     0
281
     0
282
     0
283
     1
284
     0
285
     0
286
     0
287
     3
288
     0
  0
DIMSTYLE
105
37
330
A
100
AcDbSymbolTableRecord
100
AcDbDimStyleTableRecord
  2
1
 70
     0
  3

  4

  5

  6

  7

 40
1.0
 41
1.125
 42
0.5
 43
0.375
 44
1.19921875
 45
0.0
 46
0.5
 47
0.0
 48
0.0
140
1.125
141
0.125
142
0.0
143
25.4
144
1.0
145
0.0
146
0.8
147
0.5625
 71
     0
 72
     0
 73
     0
 74
     0
 75
     0
 76
     0
 77
     1
 78
     3
170
     0
171
     2
172
     1
173
     0
174
     1
175
     0
176
   133
177
   133
178
   150
270
     2
271
     3
272
     3
273
     2
274
     2
340
36
275
     0
280
     0
281
     0
282
     0
283
     1
284
     0
285
     0
286
     0
287
     4
288
     0
  0
DIMSTYLE
105
38
330
A
100
AcDbSymbolTableRecord
100
AcDbDimStyleTableRecord
  2
1$2
 70
     0
  3

  4

  5
DOTSMALL
  6

  7

 40
1.0
 41
1.5
 42
0.5
 43
0.375
 44
1.19921875
 45
0.0
 46
0.5
 47
0.0
 48
0.0
140
0.75
141
0.125
142
0.0
143
25.4
144
1.0
145
0.0
146
0.8
147
0.5625
 71
     0
 72
     0
 73
     0
 74
     0
 75
     0
 76
     0
 77
     1
 78
     3
170
     0
171
     2
172
     1
173
     0
174
     1
175
     0
176
   133
177
   133
178
   150
270
     2
271
     3
272
     3
273
     2
274
     2
340
36
275
     0
280
     0
281
     0
282
     0
283
     1
284
     0
285
     0
286
     0
287
     4
288
     0
  0
DIMSTYLE
105
39
330
A
100
AcDbSymbolTableRecord
100
AcDbDimStyleTableRecord
  2
1$4
 70
     0
  3

  4

  5

  6

  7
DOTSMALL
 40
1.0
 41
1.5
 42
0.5
 43
0.375
 44
1.19921875
 45
0.0
 46
0.5
 47
0.0
 48
0.0
140
0.75
141
0.125
142
0.0
143
25.4
144
1.0
145
0.0
146
0.8
147
0.5625
 71
     0
 72
     0
 73
     0
 74
     0
 75
     0
 76
     0
 77
     1
 78
     3
170
     0
171
     2
172
     1
173
     1
174
     1
175
     0
176
   133
177
   133
178
   150
270
     2
271
     3
272
     3
273
     2
274
     2
340
36
275
     0
280
     0
281
     0
282
     0
283
     1
284
     0
285
     0
286
     0
287
     4
288
     0
  0
DIMSTYLE
105
3A
330
A
100
AcDbSymbolTableRecord
100
AcDbDimStyleTableRecord
  2
1$3
 70
     0
  3

  4

  5
DOTSMALL
  6

  7

 40
1.0
 41
1.5
 42
0.5
 43
0.375
 44
1.19921875
 45
0.0
 46
0.5
 47
0.0
 48
0.0
140
0.75
141
0.125
142
0.0
143
25.4
144
1.0
145
0.0
146
0.8
147
0.5625
 71
     0
 72
     0
 73
     0
 74
     0
 75
     0
 76
     0
 77
     1
 78
     3
170
     0
171
     2
172
     1
173
     0
174
     1
175
     0
176
   133
177
   133
178
   150
270
     2
271
     3
272
     3
273
     2
274
     2
340
36
275
     0
280
     0
281
     0
282
     0
283
     1
284
     0
285
     0
286
     0
287
     4
288
     0
  0
DIMSTYLE
105
3B
330
A
100
AcDbSymbolTableRecord
100
AcDbDimStyleTableRecord
  2
1$7
 70
     0
  3

  4

  5

  6

  7

 40
1.0
 41
1.0
 42
0.5
 43
0.375
 44
1.19921875
 45
0.0
 46
0.5
 47
0.0
 48
0.0
140
0.75
141
0.125
142
0.0
143
25.4
144
1.0
145
0.0
146
0.8
147
0.5625
 71
     0
 72
     0
 73
     0
 74
     0
 75
     0
 76
     0
 77
     1
 78
     3
170
     0
171
     2
172
     1
173
     0
174
     1
175
     0
176
   133
177
   133
178
   150
270
     2
271
     3
272
     3
273
     2
274
     2
340
36
275
     0
280
     0
281
     0
282
     0
283
     1
284
     0
285
     0
286
     0
287
     4
288
     0
  0
ENDTAB
  0
TABLE
  2
BLOCK_RECORD
  5
1
330
0
100
AcDbSymbolTable
 70
     5
  0
BLOCK_RECORD
  5
1F
102
{ACAD_XDICTIONARY
360
11B
102
}
330
1
100
AcDbSymbolTableRecord
100
AcDbBlockTableRecord
  2
*MODEL_SPACE
  0
BLOCK_RECORD
  5
1B
102
{ACAD_XDICTIONARY
360
119
102
}
330
1
100
AcDbSymbolTableRecord
100
AcDbBlockTableRecord
  2
*PAPER_SPACE
  0
BLOCK_RECORD
  5
2B
330
1
100
AcDbSymbolTableRecord
100
AcDbBlockTableRecord
  2
_DOT
  0
BLOCK_RECORD
  5
30
330
1
100
AcDbSymbolTableRecord
100
AcDbBlockTableRecord
  2
_DOTSMALL
  0
BLOCK_RECORD
  5
C2
330
1
100
AcDbSymbolTableRecord
100
AcDbBlockTableRecord
  2
*D3
  0
BLOCK_RECORD
  5
D0
330
1
100
AcDbSymbolTableRecord
100
AcDbBlockTableRecord
  2
*D4
  0
ENDTAB
  0
ENDSEC
  0
SECTION
  2
BLOCKS
  0
BLOCK
  5
20
330
1F
100
AcDbEntity
  8
0
100
AcDbBlockBegin
  2
*MODEL_SPACE
 70
     0
 10
0.0
 20
0.0
 30
0.0
  3
*MODEL_SPACE
  1

  0
ENDBLK
  5
21
330
1F
100
AcDbEntity
  8
0
100
AcDbBlockEnd
  0
BLOCK
  5
1C
330
1B
100
AcDbEntity
 67
     1
  8
0
100
AcDbBlockBegin
  2
*PAPER_SPACE
 70
     0
 10
0.0
 20
0.0
 30
0.0
  3
*PAPER_SPACE
  1

  0
ENDBLK
  5
1D
330
1B
100
AcDbEntity
 67
     1
  8
0
100
AcDbBlockEnd
  0
BLOCK
  5
2E
330
2B
100
AcDbEntity
  8
0
100
AcDbBlockBegin
  2
_DOT
 70
     0
 10
0.0
 20
0.0
 30
0.0
  3
_DOT
  1

  0
LWPOLYLINE
  5
2C
330
2B
100
AcDbEntity
  8
L
 62
     0
100
AcDbPolyline
 90
        2
 70
     1
 43
0.5
 10
-0.25
 20
0.0
 42
1.0
 10
0.25
 20
0.0
 42
1.0
  0
LINE
  5
2D
330
2B
100
AcDbEntity
  8
L
 62
     0
100
AcDbLine
 10
-0.5
 20
0.0
 30
0.0
 11
-1.0
 21
0.0
 31
0.0
  0
ENDBLK
  5
2F
330
2B
100
AcDbEntity
  8
0
100
AcDbBlockEnd
  0
BLOCK
  5
32
330
30
100
AcDbEntity
  8
0
 48
0.116666
100
AcDbBlockBegin
  2
_DOTSMALL
 70
     0
 10
0.0
 20
0.0
 30
0.0
  3
_DOTSMALL
  1

  0
LWPOLYLINE
  5
31
330
30
100
AcDbEntity
  8
0
  6
BYBLOCK
 62
     0
100
AcDbPolyline
 90
        2
 70
     1
 43
0.5
 10
-0.0625
 20
0.0
 42
1.0
 10
0.0625
 20
0.0
 42
1.0
  0
ENDBLK
  5
33
330
30
100
AcDbEntity
  8
0
 48
0.116666
100
AcDbBlockEnd
  0
BLOCK
  5
CD
330
C2
100
AcDbEntity
  8
0
100
AcDbBlockBegin
  2
*D3
 70
     1
 10
0.0
 20
0.0
 30
0.0
  3
*D3
  1

  0
LINE
  5
C3
330
C2
100
AcDbEntity
  8
0
 62
     0
100
AcDbLine
 10
6.049789962755692
 20
9.583045162384628
 30
0.0
 11
6.049789962755692
 21
10.1570546656848
 31
0.0
  0
LINE
  5
C4
330
C2
100
AcDbEntity
  8
0
 62
     0
100
AcDbLine
 10
4.049789962755692
 20
9.583045162384628
 30
0.0
 11
4.049789962755692
 21
10.1570546656848
 31
0.0
  0
LINE
  5
C5
330
C2
100
AcDbEntity
  8
0
 62
     0
100
AcDbLine
 10
5.869789962755692
 20
9.9770546656848
 30
0.0
 11
5.379789962755692
 21
9.9770546656848
 31
0.0
  0
LINE
  5
C6
330
C2
100
AcDbEntity
  8
0
 62
     0
100
AcDbLine
 10
4.229789962755692
 20
9.9770546656848
 30
0.0
 11
4.719789962755692
 21
9.9770546656848
 31
0.0
  0
SOLID
  5
C7
330
C2
100
AcDbEntity
  8
0
 62
     0
100
AcDbTrace
 10
5.869789962755692
 20
10.0070546656848
 30
0.0
 11
5.869789962755692
 21
9.947054665684801
 31
0.0
 12
6.049789962755692
 22
9.9770546656848
 32
0.0
 13
6.049789962755692
 23
9.9770546656848
 33
0.0
  0
SOLID
  5
C8
330
C2
100
AcDbEntity
  8
0
 62
     0
100
AcDbTrace
 10
4.229789962755692
 20
10.0070546656848
 30
0.0
 11
4.229789962755692
 21
9.947054665684801
 31
0.0
 12
4.049789962755692
 22
9.9770546656848
 32
0.0
 13
4.049789962755692
 23
9.9770546656848
 33
0.0
  0
MTEXT
  5
C9
330
C2
100
AcDbEntity
  8
0
 62
     0
100
AcDbMText
 10
5.049789962755692
 20
9.9770546656848
 30
0.0
 40
0.18
 41
0.0
 71
     5
 72
     1
  1
\A1;2.00
1001
ACAD
1000
MTEXTBEGIN
1070
    73
1070
     1
1070
    44
1040
1.0
1070
    74
1070
     0
1000
MTEXTEND
  0
POINT
  5
CA
330
C2
100
AcDbEntity
  8
DEFPOINTS
 62
     0
100
AcDbPoint
 10
6.049789962755692
 20
9.520545162384628
 30
0.0
  0
POINT
  5
CB
330
C2
100
AcDbEntity
  8
DEFPOINTS
 62
     0
100
AcDbPoint
 10
4.049789962755692
 20
9.520545162384628
 30
0.0
  0
POINT
  5
CC
330
C2
100
AcDbEntity
  8
DEFPOINTS
 62
     0
100
AcDbPoint
 10
4.049789962755692
 20
9.9770546656848
 30
0.0
  0
ENDBLK
  5
CE
330
C2
100
AcDbEntity
  8
0
100
AcDbBlockEnd
  0
BLOCK
  5
DB
330
D0
100
AcDbEntity
  8
0
100
AcDbBlockBegin
  2
*D4
 70
     1
 10
0.0
 20
0.0
 30
0.0
  3
*D4
  1

  0
LINE
  5
D1
330
D0
100
AcDbEntity
  8
0
 62
     0
100
AcDbLine
 10
3.987289962755692
 20
9.52054516238463
 30
0.0
 11
3.295743934863765
 21
9.52054516238463
 31
0.0
  0
LINE
  5
D2
330
D0
100
AcDbEntity
  8
0
 62
     0
100
AcDbLine
 10
3.987289962755692
 20
3.520545162384628
 30
0.0
 11
3.295743934863764
 21
3.520545162384628
 31
0.0
  0
LINE
  5
D3
330
D0
100
AcDbEntity
  8
0
 62
     0
100
AcDbLine
 10
3.475743934863765
 20
9.34054516238463
 30
0.0
 11
3.475743934863764
 21
6.700545162384629
 31
0.0
  0
LINE
  5
D4
330
D0
100
AcDbEntity
  8
0
 62
     0
100
AcDbLine
 10
3.475743934863764
 20
3.700545162384628
 30
0.0
 11
3.475743934863764
 21
6.340545162384629
 31
0.0
  0
SOLID
  5
D5
330
D0
100
AcDbEntity
  8
0
 62
     0
100
AcDbTrace
 10
3.445743934863765
 20
9.34054516238463
 30
0.0
 11
3.505743934863765
 21
9.34054516238463
 31
0.0
 12
3.475743934863765
 22
9.52054516238463
 32
0.0
 13
3.475743934863765
 23
9.52054516238463
 33
0.0
  0
SOLID
  5
D6
330
D0
100
AcDbEntity
  8
0
 62
     0
100
AcDbTrace
 10
3.445743934863764
 20
3.700545162384628
 30
0.0
 11
3.505743934863764
 21
3.700545162384628
 31
0.0
 12
3.475743934863764
 22
3.520545162384628
 32
0.0
 13
3.475743934863764
 23
3.520545162384628
 33
0.0
  0
MTEXT
  5
D7
330
D0
100
AcDbEntity
  8
0
 62
     0
100
AcDbMText
 10
3.475743934863763
 20
6.52054516238463
 30
0.0
 40
0.18
 41
0.0
 71
     5
 72
     1
  1
\A1;6.00
1001
ACAD
1000
MTEXTBEGIN
1070
    73
1070
     1
1070
    44
1040
1.0
1070
    74
1070
     0
1000
MTEXTEND
  0
POINT
  5
D8
330
D0
100
AcDbEntity
  8
DEFPOINTS
 62
     0
100
AcDbPoint
 10
4.049789962755692
 20
9.520545162384628
 30
0.0
  0
POINT
  5
D9
330
D0
100
AcDbEntity
  8
DEFPOINTS
 62
     0
100
AcDbPoint
 10
4.049789962755692
 20
3.520545162384628
 30
0.0
  0
POINT
  5
DA
330
D0
100
AcDbEntity
  8
DEFPOINTS
 62
     0
100
AcDbPoint
 10
3.475743934863764
 20
3.520545162384628
 30
0.0
  0
ENDBLK
  5
DC
330
D0
100
AcDbEntity
  8
0
100
AcDbBlockEnd
  0
ENDSEC
  0
SECTION
  2
ENTITIES
  0
LWPOLYLINE
  5
BE
330
1F
100
AcDbEntity
  8
L
 62
     5
 48
0.116666
100
AcDbPolyline
 90
        2
 70
     0
 43
0.0282
 10
3.158555790078075
 20
2.721143891565976
 10
7.443668962491805
 20
2.721143891565976
  0
TEXT
  5
BF
330
1F
100
AcDbEntity
  8
L
 62
     3
 48
0.116666
100
AcDbText
 10
3.252541595006327
 20
2.815129696494114
 30
0.0
 40
0.141
  1
SERIES CB 2 x 6 COPY BAR #1460
  7
REG
100
AcDbText
  0
TEXT
  5
C0
330
1F
100
AcDbEntity
  8
TX
 48
0.116666
100
AcDbText
 10
3.252541595006327
 20
2.533158086637838
 30
0.0
 40
0.094
  1
SCALE : FULL SIZE
  7
REG
 11
3.252541595006327
 21
2.627158086637837
 31
0.0
100
AcDbText
 73
     3
  0
DIMENSION
  5
C1
330
1F
100
AcDbEntity
  8
0
100
AcDbDimension
  2
*D3
 10
4.049789962755692
 20
9.9770546656848
 30
0.0
 11
5.049789962755692
 21
9.9770546656848
 31
0.0
 70
    32
  3
STANDARD
100
AcDbAlignedDimension
 13
6.049789962755692
 23
9.520545162384628
 33
0.0
 14
4.049789962755692
 24
9.520545162384628
 34
0.0
100
AcDbRotatedDimension
  0
DIMENSION
  5
CF
330
1F
100
AcDbEntity
  8
0
100
AcDbDimension
  2
*D4
 10
3.475743934863764
 20
3.520545162384628
 30
0.0
 11
3.475743934863763
 21
6.52054516238463
 31
0.0
 70
    32
  3
STANDARD
100
AcDbAlignedDimension
 13
4.049789962755692
 23
9.520545162384628
 33
0.0
 14
4.049789962755692
 24
3.520545162384628
 34
0.0
 50
90.0
100
AcDbRotatedDimension
  0
LWPOLYLINE
  5
EC
330
1F
100
AcDbEntity
  8
L
 62
     5
100
AcDbPolyline
 90
        4
 70
     1
 43
0.0
 10
6.049789962755692
 20
3.520545162384628
 10
6.049789962755692
 20
9.520545162384628
 10
4.049789962755692
 20
9.520545162384628
 10
4.049789962755692
 20
3.520545162384628
  0
LWPOLYLINE
  5
EF
330
1F
100
AcDbEntity
  8
L
 62
     5
100
AcDbPolyline
 90
        4
 70
     1
 43
0.0
 10
4.169789962755583
 20
3.640545162384633
 10
4.169789962755583
 20
9.400545162384624
 10
5.929789962755801
 20
9.400545162384624
 10
5.929789962755801
 20
3.640545162384633
  0
ENDSEC
  0
SECTION
  2
OBJECTS
  0
DICTIONARY
  5
C
330
0
100
AcDbDictionary
  3
ACAD_GROUP
350
D
  3
ACAD_LAYOUT
350
1A
  3
ACAD_MLINESTYLE
350
17
  3
ACAD_PLOTSETTINGS
350
19
  3
ACAD_PLOTSTYLENAME
350
E
  3
ACDBHEADERROUNDTRIPXREC
350
F9
  0
DICTIONARY
  5
11B
330
1F
100
AcDbDictionary
280
     1
  3
ACAD_LAYOUTSELFREF
360
11C
  0
DICTIONARY
  5
119
330
1B
100
AcDbDictionary
280
     1
  3
ACAD_LAYOUTSELFREF
360
11A
  0
DICTIONARY
  5
D
102
{ACAD_REACTORS
330
C
102
}
330
C
100
AcDbDictionary
  0
DICTIONARY
  5
1A
102
{ACAD_REACTORS
330
C
102
}
330
C
100
AcDbDictionary
  0
DICTIONARY
  5
17
102
{ACAD_REACTORS
330
C
102
}
330
C
100
AcDbDictionary
  3
STANDARD
350
18
  0
DICTIONARY
  5
19
102
{ACAD_REACTORS
330
C
102
}
330
C
100
AcDbDictionary
  0
ACDBDICTIONARYWDFLT
  5
E
102
{ACAD_REACTORS
330
C
102
}
330
C
100
AcDbDictionary
281
     1
  3
Normal
350
F
100
AcDbDictionaryWithDefault
340
F
  0
DICTIONARY
  5
F9
102
{ACAD_REACTORS
330
C
102
}
330
C
100
AcDbDictionary
  3
CEPSNTYPE
350
103
  3
FINGERPRINTGUID
350
104
  3
HYPERLINKBASE
350
FC
  3
INSUNITS
350
102
  3
LAYOUTDICT
350
FE
  3
LWETCUNION
350
101
  3
PLOTSETDICT
350
FF
  3
PLOTSTYLNAMDICT
350
100
  3
PSVPSCALE
350
106
  3
PUCSBASE
350
109
  3
PUCSORGBACK
350
10F
  3
PUCSORGBOTTOM
350
10B
  3
PUCSORGFRONT
350
10E
  3
PUCSORGLEFT
350
10C
  3
PUCSORGRIGHT
350
10D
  3
PUCSORGTOP
350
10A
  3
PUCSORTHOREF
350
107
  3
PUCSORTHOVIEW
350
108
  3
STYLESHEET
350
FD
  3
TSTACKALIGN
350
FA
  3
TSTACKSIZE
350
FB
  3
UCSBASE
350
112
  3
UCSORGBACK
350
118
  3
UCSORGBOTTOM
350
114
  3
UCSORGFRONT
350
117
  3
UCSORGLEFT
350
115
  3
UCSORGRIGHT
350
116
  3
UCSORGTOP
350
113
  3
UCSORTHOREF
350
110
  3
UCSORTHOVIEW
350
111
  3
VERSIONGUID
350
105
  0
XRECORD
  5
11C
102
{ACAD_REACTORS
330
11B
102
}
330
11B
100
AcDbXrecord
340
1F
  0
XRECORD
  5
11A
102
{ACAD_REACTORS
330
119
102
}
330
119
100
AcDbXrecord
340
1B
  0
MLINESTYLE
  5
18
102
{ACAD_REACTORS
330
17
102
}
330
17
100
AcDbMlineStyle
  2
STANDARD
 70
     0
  3

 62
   256
 51
90.0
 52
90.0
 71
     2
 49
0.5
 62
   256
  6
BYLAYER
 49
-0.5
 62
   256
  6
BYLAYER
  0
ACDBPLACEHOLDER
  5
F
102
{ACAD_REACTORS
330
E
102
}
330
E
100
AcDbPlaceHolder
280
     0
  0
XRECORD
  5
103
102
{ACAD_REACTORS
330
F9
102
}
330
F9
100
AcDbXrecord
 90
        0
  0
XRECORD
  5
104
102
{ACAD_REACTORS
330
F9
102
}
330
F9
100
AcDbXrecord
  1
{DC175E3D-AE85-11D5-9A93-0040C77E826B}
  0
XRECORD
  5
FC
102
{ACAD_REACTORS
330
F9
102
}
330
F9
100
AcDbXrecord
  1

  0
XRECORD
  5
102
102
{ACAD_REACTORS
330
F9
102
}
330
F9
100
AcDbXrecord
 90
        1
  0
XRECORD
  5
FE
102
{ACAD_REACTORS
330
F9
102
}
330
F9
100
AcDbXrecord
340
1A
  0
XRECORD
  5
101
102
{ACAD_REACTORS
330
F9
102
}
330
F9
100
AcDbXrecord
 90
    10781
  0
XRECORD
  5
FF
102
{ACAD_REACTORS
330
F9
102
}
330
F9
100
AcDbXrecord
340
19
  0
XRECORD
  5
100
102
{ACAD_REACTORS
330
F9
102
}
330
F9
100
AcDbXrecord
340
E
  0
XRECORD
  5
106
102
{ACAD_REACTORS
330
F9
102
}
330
F9
100
AcDbXrecord
 40
0.0
  0
XRECORD
  5
109
102
{ACAD_REACTORS
330
F9
102
}
330
F9
100
AcDbXrecord
340
0
  0
XRECORD
  5
10F
102
{ACAD_REACTORS
330
F9
102
}
330
F9
100
AcDbXrecord
 10
0.0
 20
0.0
 30
0.0
  0
XRECORD
  5
10B
102
{ACAD_REACTORS
330
F9
102
}
330
F9
100
AcDbXrecord
 10
0.0
 20
0.0
 30
0.0
  0
XRECORD
  5
10E
102
{ACAD_REACTORS
330
F9
102
}
330
F9
100
AcDbXrecord
 10
0.0
 20
0.0
 30
0.0
  0
XRECORD
  5
10C
102
{ACAD_REACTORS
330
F9
102
}
330
F9
100
AcDbXrecord
 10
0.0
 20
0.0
 30
0.0
  0
XRECORD
  5
10D
102
{ACAD_REACTORS
330
F9
102
}
330
F9
100
AcDbXrecord
 10
0.0
 20
0.0
 30
0.0
  0
XRECORD
  5
10A
102
{ACAD_REACTORS
330
F9
102
}
330
F9
100
AcDbXrecord
 10
0.0
 20
0.0
 30
0.0
  0
XRECORD
  5
107
102
{ACAD_REACTORS
330
F9
102
}
330
F9
100
AcDbXrecord
340
0
  0
XRECORD
  5
108
102
{ACAD_REACTORS
330
F9
102
}
330
F9
100
AcDbXrecord
 70
     0
  0
XRECORD
  5
FD
102
{ACAD_REACTORS
330
F9
102
}
330
F9
100
AcDbXrecord
  1

  0
XRECORD
  5
FA
102
{ACAD_REACTORS
330
F9
102
}
330
F9
100
AcDbXrecord
 90
        1
  0
XRECORD
  5
FB
102
{ACAD_REACTORS
330
F9
102
}
330
F9
100
AcDbXrecord
 90
       70
  0
XRECORD
  5
112
102
{ACAD_REACTORS
330
F9
102
}
330
F9
100
AcDbXrecord
340
0
  0
XRECORD
  5
118
102
{ACAD_REACTORS
330
F9
102
}
330
F9
100
AcDbXrecord
 10
0.0
 20
0.0
 30
0.0
  0
XRECORD
  5
114
102
{ACAD_REACTORS
330
F9
102
}
330
F9
100
AcDbXrecord
 10
0.0
 20
0.0
 30
0.0
  0
XRECORD
  5
117
102
{ACAD_REACTORS
330
F9
102
}
330
F9
100
AcDbXrecord
 10
0.0
 20
0.0
 30
0.0
  0
XRECORD
  5
115
102
{ACAD_REACTORS
330
F9
102
}
330
F9
100
AcDbXrecord
 10
0.0
 20
0.0
 30
0.0
  0
XRECORD
  5
116
102
{ACAD_REACTORS
330
F9
102
}
330
F9
100
AcDbXrecord
 10
0.0
 20
0.0
 30
0.0
  0
XRECORD
  5
113
102
{ACAD_REACTORS
330
F9
102
}
330
F9
100
AcDbXrecord
 10
0.0
 20
0.0
 30
0.0
  0
XRECORD
  5
110
102
{ACAD_REACTORS
330
F9
102
}
330
F9
100
AcDbXrecord
340
0
  0
XRECORD
  5
111
102
{ACAD_REACTORS
330
F9
102
}
330
F9
100
AcDbXrecord
 70
     0
  0
XRECORD
  5
105
102
{ACAD_REACTORS
330
F9
102
}
330
F9
100
AcDbXrecord
  1
{0DBB0C8C-9AC7-4584-B2F5-195F9FF925DA}
  0
ENDSEC
  0
EOF
